↑↓torrent.by
Поиск
Логин: Регистрация
Пароль: Восстановить пароль

Ассасин: Битва миров / A Writer's Odyssey: Assassin in red / Ci sha xiao shuo jia (2021) WEB-DL-HEVC 2160p | 4K | HDR | D, P | iTunes

Скачать assasin-bitva-mirov-a-writer-s-odyssey-assassin-in-red-ci-sha-xiao-shuo-jia-2021-web-dl-hevc-2160p-4k-hdr-d-p-itunes.torrent
U Магнитная ссылка Размер: 15.27 GB Раздают: 62 Качают: 68 Добавлен: 2021-07-18 17:52:14
Ассасин: Битва миров / A Writer's Odyssey: Assassin in red / Ci sha xiao shuo jia (2021) WEB-DL-HEVC 2160p | 4K | HDR | D, P | iTunes

Название: Ассасин: Битва миров
Оригинальное название: A Writer's Odyssey: Assassin in red / Ci sha xiao shuo jia
Год выхода: 2021
Жанр: Фэнтези, боевик

Режиссер: Лу Ян

В ролях: Цзяинь Лэй, Ми Ян, Дун Цзыцзянь, Хэвэй Юй, Цзинфэй Го, Ван Шэнди, Лия Тун, Дун Цзэ, Ян И, Лю Тяньцзо

О фильме:
В неком фэнтезийном мире правит жестокий Бог, которому нужны лишь смерть и разрушения. Потеряв сестру, но обретя волшебный доспех, молодой воин Кунвэнь отправляется в путешествие, чтобы разыскать и убить Бога. В это время в нашем мире мужчина Гуань Нин уже шесть лет находится на грани отчаяния, разыскивая пропавшую дочку. Он выходит на торговцев детьми, но полиция ошибочно принимает его за преступника и арестовывает. Сбежать Нину помогает ассистентка влиятельного бизнесмена и предлагает ему сделку. Один популярный писатель в данный момент пишет роман в жанре фэнтези, который каким-то образом вредит здоровью её босса, а Нин в обмен на информацию о местонахождении дочери должен этого писателя убить.

Страна: Китай
Продолжительность: 02:09:52
Перевод(ы):
#1: Профессиональный дублированный | iTunes
#2: Профессиональный (многоголосый, закадровый) | HDRezka Studio

Файл
Кодек: H.265
Качество: WEB-DL 2160p
Видео: MPEG-H HEVC HDR Video, 3840x2080 (1.85:1), 24.000 fps, 15.6 Mb/s, 10 bit
Аудио 1: AC3, 48.0 kHz, 6 ch, 384 kb/s |  RUS [DUB, iTunes]
Аудио 2: AC3, 48.0 kHz, 2 ch, 192 kb/s |   RUS [MVO, HDRezka Studio]
Аудио 3: AC3, 48.0 kHz, 6 ch, 384 kb/s |   UKR [DUB, iTunes]
Аудио 4: E-AC3, 48.0 kHz, 6 ch, 256 kb/s |  CHI [Оригинал]
Субтитры: Русские (Forced), украинские (Forced), английские (Hardsub), китайские (Hardsub)

Семпл


[+] MI
Общее
Уникальный идентификатор                 : 222187923063048812450102430165217752011 (0xA727D661DDF9B3A5859D7669B55EB3CB)
Полное имя                               : A.Writer's.Odyssey.(2021).HDR.WEB-DL.2160p.mkv
Формат                                   : Matroska
Версия формата                           : Version 4 / Version 2
Размер файла                             : 15,3 Гбайт
Продолжительность                        : 2 ч. 9 м.
Общий поток                              : 16,8 Мбит/сек
Дата кодирования                         : UTC 2021-07-17 16:44:35
Программа кодирования                    : mkvmerge v8.3.0 ('Over the Horizon') 64bit
Библиотека кодирования                   : libebml v1.3.1 + libmatroska v1.4.2

Видео
Идентификатор                            : 1
Формат                                   : HEVC
Формат/Информация                        : High Efficiency Video Coding
Профиль формата                          : Main 10@L5@High
HDR format                               : SMPTE ST 2086, HDR10 compatible
Идентификатор кодека                     : V_MPEGH/ISO/HEVC
Продолжительность                        : 2 ч. 9 м.
Битрейт                                  : 15,6 Мбит/сек
Ширина                                   : 3 840 пикселей
Высота                                   : 2 080 пикселей
Соотношение сторон                       : 1,85:1
Режим частоты кадров                     : Постоянный
Частота кадров                           : 24,000 кадра/сек
Цветовое пространство                    : YUV
Субдискретизация насыщенности            : 4:2:0
Битовая глубина                          : 10 бит
Бит/(Пиксели*Кадры)                      : 0.081
Размер потока                            : 14,2 Гбайт (93%)
Default                                  : Да
Forced                                   : Нет
Цветовой диапазон                        : Limited
Основные цвета                           : BT.2020
Характеристики трансфера                 : PQ
Коэффициенты матрицы                     : BT.2020 non-constant
Mastering display color primaries        : R: x=0.708000 y=0.292000, G: x=0.170000 y=0.797000, B: x=0.130000 y=0.046000, White point: x=0.312700 y=0.329000
Mastering display luminance              : min: 0.0001 cd/m2, max: 1000 cd/m2
Maximum Content Light Level              : 718 cd/m2
Maximum Frame-Average Light Level        : 352 cd/m2

Аудио #1
Идентификатор                            : 2
Формат                                   : AC-3
Формат/Информация                        : Audio Coding 3
Коммерческое название                    : Dolby Digital
Идентификатор кодека                     : A_AC3
Продолжительность                        : 2 ч. 9 м.
Вид битрейта                             : Постоянный
Битрейт                                  : 384 Кбит/сек
Каналы                                   : 6 каналов
Channel layout                           : L R C LFE Ls Rs
Частота                                  : 48,0 КГц
Частота кадров                           : 31,250 кадров/сек (1536 SPF)
Метод сжатия                             : С потерями
Размер потока                            : 357 Мбайт (2%)
Заголовок                                : DUB (iTunes)
Язык                                     : Russian
Service kind                             : Complete Main
Default                                  : Да
Forced                                   : Нет

Аудио #2
Идентификатор                            : 3
Формат                                   : AC-3
Формат/Информация                        : Audio Coding 3
Коммерческое название                    : Dolby Digital
Идентификатор кодека                     : A_AC3
Продолжительность                        : 2 ч. 9 м.
Вид битрейта                             : Постоянный
Битрейт                                  : 192 Кбит/сек
Каналы                                   : 2 канала
Channel layout                           : L R
Частота                                  : 48,0 КГц
Частота кадров                           : 31,250 кадров/сек (1536 SPF)
Метод сжатия                             : С потерями
Размер потока                            : 178 Мбайт (1%)
Заголовок                                : MVO (HDRezka Studio)
Язык                                     : Russian
Service kind                             : Complete Main
Default                                  : Нет
Forced                                   : Нет

Аудио #3
Идентификатор                            : 4
Формат                                   : AC-3
Формат/Информация                        : Audio Coding 3
Коммерческое название                    : Dolby Digital
Идентификатор кодека                     : A_AC3
Продолжительность                        : 2 ч. 9 м.
Вид битрейта                             : Постоянный
Битрейт                                  : 384 Кбит/сек
Каналы                                   : 6 каналов
Channel layout                           : L R C LFE Ls Rs
Частота                                  : 48,0 КГц
Частота кадров                           : 31,250 кадров/сек (1536 SPF)
Метод сжатия                             : С потерями
Размер потока                            : 357 Мбайт (2%)
Заголовок                                : DUB (iTunes)
Язык                                     : Ukrainian
Service kind                             : Complete Main
Default                                  : Нет
Forced                                   : Нет

Аудио #4
Идентификатор                            : 5
Формат                                   : E-AC-3
Формат/Информация                        : Enhanced AC-3
Коммерческое название                    : Dolby Digital Plus
Идентификатор кодека                     : A_EAC3
Продолжительность                        : 2 ч. 9 м.
Вид битрейта                             : Постоянный
Битрейт                                  : 256 Кбит/сек
Каналы                                   : 6 каналов
Channel layout                           : L R C LFE Ls Rs
Частота                                  : 48,0 КГц
Частота кадров                           : 31,250 кадров/сек (1536 SPF)
Метод сжатия                             : С потерями
Размер потока                            : 238 Мбайт (2%)
Заголовок                                : Original
Язык                                     : Chinese
Service kind                             : Complete Main
Default                                  : Нет
Forced                                   : Нет

Текст #1
Идентификатор                            : 6
Формат                                   : UTF-8
Идентификатор кодека                     : S_TEXT/UTF8
Идентификатор кодека/Информация          : UTF-8 Plain Text
Продолжительность                        : 1 ч. 48 м.
Битрейт                                  : 0 бит/сек
Count of elements                        : 11
Размер потока                            : 663 байт (0%)
Заголовок                                : Forced
Язык                                     : Russian
Default                                  : Да
Forced                                   : Нет

Текст #2
Идентификатор                            : 7
Формат                                   : UTF-8
Идентификатор кодека                     : S_TEXT/UTF8
Идентификатор кодека/Информация          : UTF-8 Plain Text
Продолжительность                        : 1 ч. 48 м.
Битрейт                                  : 0 бит/сек
Count of elements                        : 12
Размер потока                            : 637 байт (0%)
Заголовок                                : Forced
Язык                                     : Ukrainian
Default                                  : Нет
Forced                                   : Нет

Меню
00:00:00.000                             : :Глава 1
00:15:32.208                             : :Глава 2
00:31:40.875                             : :Глава 3
00:48:13.667                             : :Глава 4
01:06:27.458                             : :Глава 5
01:15:22.542                             : :Глава 6
01:23:56.958                             : :Глава 7
01:27:11.083                             : :Глава 8
01:33:23.208                             : :Глава 9
01:44:31.458                             : :Глава 10
01:51:31.208                             : :Глава 11
01:55:10.125                             : :Глава 12
01:58:51.083                             : :Глава 13
02:03:55.042                             : :Глава 14



Скриншоты:
[+] Всего файлов в раздаче - 1:

Похожие раздачи по запросу - ассасин:
2021-07-09 U Ассасин: Битва миров / A Writer's Odyssey: Assassin in red / Ci sha xiao shuo jia (2021) WEB-DLRip от MegaPeer | iTunes 2.18 GB ↑ 94 ↓ 15
2021-07-09 U Ассасин: Битва миров / A Writer's Odyssey: Assassin in red / Ci sha xiao shuo jia (2021) WEBRip от ELEKTRI4KA | IVI 1.46 GB ↑ 102 ↓ 8
2021-05-20 U Ассасин: Битва миров / A Writer's Odyssey: Assassin in red / Ci sha xiao shuo jia (2021) WEBRip 1080p | HDRezka Studio 3.15 GB ↑ 1366 ↓ 51

Отзывы
Зарегистрируйтесь чтобы добавить комментарий.
Загрузите программу
  byTorrent
Обратная связь
Copyleft ©